<?xml version="1.0" standalone="no"?>
<!DOCTYPE svg PUBLIC "-//W3C//DTD SVG 1.1//EN" "http://www.w3.org/Graphics/SVG/1.1/DTD/svg11.dtd" >
<svg xmlns="http://www.w3.org/2000/svg">
<metadata>Generated by IcoMoon</metadata>
<defs>
<font id="Bh" horiz-adv-x="512">
<font-face units-per-em="512" ascent="480" descent="-32" />
<missing-glyph horiz-adv-x="512" />
<glyph unicode="&#x20;" d="" horiz-adv-x="256" />
<glyph unicode="&#xe600;" d="M361.245 206.933h-11.378c0 56.889-9.102 117.191-82.489 117.191-58.596 0-88.178-37.547-88.178-117.191h-11.378c0 85.334 34.702 128.569 99.555 128.569 84.195 0 93.866-71.68 93.866-128.569zM186.595 131.84l-4.551-1.138c-15.36-3.413-29.013 8.534-34.133 30.151s1.707 38.685 17.066 42.098l4.551 1.138 17.066-72.249zM163.271 192.142c-7.395-5.12-8.534-17.635-5.689-29.582s9.102-22.755 18.204-23.894l-12.516 53.476zM195.698 124.445v0c-9.102-2.276-17.636 3.413-19.911 11.947l-13.654 59.164c-2.275 8.534 3.413 17.635 11.946 19.342 9.102 2.276 17.636-3.413 19.911-11.947l13.654-59.164c2.275-8.534-3.413-17.635-11.947-19.342zM176.924 205.796c-3.982-1.138-6.258-4.551-5.12-8.534l13.084-58.596c1.138-3.413 4.551-6.258 7.964-5.12v0c3.413 1.138 6.258 4.551 5.12 7.964l-13.654 59.164c0 3.982-3.982 6.258-7.395 5.12zM361.245 204.658l4.551-1.138c15.36-3.413 22.187-20.48 17.067-42.098s-18.774-33.565-34.133-30.151l-4.551 1.138 17.067 72.249zM355.555 139.805c9.102 1.138 15.36 11.947 18.204 23.894 2.844 11.378 1.707 24.462-5.689 29.014l-12.515-52.906zM323.129 144.356l13.654 59.164c2.276 8.534 10.809 14.222 19.342 11.947s14.222-10.809 11.947-19.342l-13.654-59.164c-2.276-8.534-10.809-14.222-19.342-11.947v0c-8.534 2.276-13.654 10.809-11.947 19.342zM345.885 201.245l-13.654-59.164c-1.138-3.413 1.707-7.396 5.12-7.964v0c3.413-1.138 7.396 1.707 7.964 5.12l13.654 59.164c1.138 3.413-1.707 7.396-5.12 8.534-3.413 0.569-6.827-1.707-7.964-5.689z" />
<glyph unicode="&#xe601;" d="M258.844 81.778c-80.214 0-145.066 64.853-145.066 145.066s64.853 145.066 145.066 145.066 145.066-64.853 145.066-145.066-64.853-145.066-145.067-145.066zM258.844 360.534c-73.956 0-133.689-59.733-133.689-133.689s59.733-133.689 133.689-133.689 133.689 59.733 133.689 133.689-59.733 133.689-133.689 133.689zM307.2 172.8h-96.711v96.711h96.711v-96.711zM221.867 184.178h73.956v73.956h-73.956v-73.956z" />
<glyph unicode="&#xe602;" d="M247.466 81.778c-80.214 0-145.066 64.853-145.066 145.066s64.853 145.066 145.066 145.066 145.067-64.853 145.067-145.066-64.853-145.066-145.066-145.066zM247.466 360.534c-73.956 0-133.689-59.733-133.689-133.689s59.733-133.689 133.689-133.689 133.689 59.733 133.689 133.689-59.733 133.689-133.689 133.689zM210.489 156.302c-0.569 0-1.707 0-2.275 0.569-1.707 1.138-3.413 2.844-3.413 5.12v118.898c0 2.276 1.138 3.982 3.413 5.12 1.707 1.138 4.551 0.569 6.258-0.569l76.8-59.733c1.138-1.138 2.276-2.844 2.276-4.551s-0.569-3.413-2.276-4.551l-77.369-59.164c-1.138-0.569-2.275-1.138-3.413-1.138zM216.178 269.511v-95.573l62.009 47.786-62.009 47.786zM290.134 155.733c-3.413 0-5.689 2.276-5.689 5.689v119.466c0 3.413 2.276 5.689 5.689 5.689s5.689-2.275 5.689-5.689v-119.466c0-3.413-2.276-5.689-5.689-5.689z" />
<glyph unicode="&#xe603;" d="M253.155 81.778c-80.213 0-145.066 64.853-145.066 145.066s64.853 145.066 145.066 145.066 145.066-64.853 145.066-145.066-64.853-145.066-145.066-145.066zM253.155 360.534c-73.956 0-133.689-59.733-133.689-133.689s59.733-133.689 133.689-133.689 133.689 59.733 133.689 133.689-59.733 133.689-133.689 133.689zM238.934 155.733h-28.445c-3.413 0-5.689 2.276-5.689 5.689v119.466c0 3.413 2.275 5.689 5.689 5.689h28.445c3.413 0 5.689-2.275 5.689-5.689v-119.466c0-3.413-2.275-5.689-5.689-5.689zM216.178 167.111h17.066v108.089h-17.066v-108.089zM295.822 155.733h-28.445c-3.413 0-5.689 2.276-5.689 5.689v119.466c0 3.413 2.276 5.689 5.689 5.689h28.445c3.413 0 5.689-2.275 5.689-5.689v-119.466c0-3.413-2.276-5.689-5.689-5.689zM273.067 167.111h17.067v108.089h-17.067v-108.089z" />
<glyph unicode="&#xe604;" d="M253.155 81.778c-80.213 0-145.066 64.853-145.066 145.066s64.853 145.066 145.066 145.066 145.066-64.853 145.066-145.066-64.853-145.066-145.066-145.066zM253.155 360.534c-73.956 0-133.689-59.733-133.689-133.689s59.733-133.689 133.689-133.689 133.689 59.733 133.689 133.689-59.733 133.689-133.689 133.689zM233.244 156.302c-0.569 0-1.707 0-2.275 0.569-1.707 1.138-3.413 2.844-3.413 5.12v118.898c0 2.276 1.138 3.982 3.413 5.12 1.707 1.138 4.551 0.569 6.258-0.569l76.8-59.733c1.138-1.138 2.276-2.844 2.276-4.551s-0.569-3.413-2.276-4.551l-77.369-59.164c-1.138-0.569-2.275-1.138-3.413-1.138zM238.934 269.511v-95.573l62.009 47.786-62.009 47.786z" />
<glyph unicode="&#xe605;" d="M258.844 81.778c-80.214 0-145.066 64.853-145.066 145.066s64.853 145.066 145.066 145.066 145.066-64.853 145.066-145.066-64.853-145.066-145.067-145.066zM258.844 360.534c-73.956 0-133.689-59.733-133.689-133.689s59.733-133.689 133.689-133.689 133.689 59.733 133.689 133.689-59.733 133.689-133.689 133.689zM298.098 157.44l-76.8 59.733c-1.138 1.138-2.275 2.844-2.275 4.551s0.569 3.413 2.275 4.551l76.8 59.733c1.707 1.138 3.982 1.707 6.258 0.569 1.707-1.138 3.413-2.845 3.413-5.12v-118.898c0-2.276-1.138-3.982-3.413-5.12-0.569-0.569-1.707-0.569-2.276-0.569-1.707-0.569-2.844 0-3.982 0.569zM233.814 221.156l62.009-47.786v96.142l-62.009-48.356zM221.867 155.733c3.413 0 5.689 2.276 5.689 5.689v119.466c0 3.413-2.275 5.689-5.689 5.689s-5.689-2.275-5.689-5.689v-119.466c0-3.413 2.275-5.689 5.689-5.689z" />
<glyph unicode="&#xe606;" d="M304.356 172.8l-57.458 44.373c-1.138 0.569-1.138 5.689 0 6.827l57.458 44.374c1.138 1.138 2.844 1.138 4.551 0.569s2.276-2.275 2.276-3.982v-89.316c0-1.707-1.138-2.844-2.276-3.982-0.569-0.569-1.138-0.569-1.707-0.569-1.138 0.569-2.276 1.138-2.844 1.707zM256.569 220.587l46.080-35.84v71.68l-46.080-35.84zM246.898 172.8l-57.458 44.373c-1.138 1.138-1.707 2.276-1.707 3.413s0.569 2.844 1.707 3.413l57.458 44.374c1.138 1.138 2.845 1.138 4.551 0.569s2.275-2.275 2.275-3.982v-89.316c0-1.707-1.138-2.844-2.275-3.982-0.569-0.569-1.138-0.569-1.707-0.569-1.138 0.569-2.275 1.138-2.845 1.707zM199.111 220.587l46.080-35.84v71.68l-46.080-35.84zM258.844 81.778c-80.214 0-145.066 64.853-145.066 145.066s64.853 145.066 145.066 145.066 145.066-64.853 145.066-145.066-64.853-145.066-145.067-145.066zM258.844 360.534c-73.956 0-133.689-59.733-133.689-133.689s59.733-133.689 133.689-133.689 133.689 59.733 133.689 133.689-59.733 133.689-133.689 133.689z" />
<glyph unicode="&#xe607;" d="M171.236 89.742c-11.947 0-23.325 4.551-31.289 13.084l-0.569 0.569c-8.534 8.534-13.085 19.911-13.085 31.289s4.551 23.325 13.085 31.289l57.458 58.026c8.534 8.534 19.911 13.084 31.289 13.084 11.947 0 23.325-4.551 31.289-13.084l0.569-0.569c8.534-8.534 13.084-19.911 13.084-31.289s-4.551-23.325-13.084-31.289l-57.458-58.026c-7.964-8.534-19.342-13.084-31.289-13.084zM228.125 225.707c-9.102 0-17.066-3.413-23.325-9.671l-57.458-57.458c-6.258-6.258-9.671-14.791-9.671-23.325s3.413-17.067 9.671-23.325l0.569-0.569c6.258-6.258 14.791-9.671 23.325-9.671s17.066 3.413 23.325 9.671l57.458 57.458c6.258 6.258 9.671 14.791 9.671 23.325s-3.413 17.067-9.671 23.325l-0.569 0.569c-6.258 6.258-14.222 9.671-23.325 9.671zM283.875 202.382c-11.947 0-23.325 4.551-31.289 13.084l-0.569 0.569c-8.534 8.534-13.084 19.911-13.084 31.289s4.551 23.325 13.084 31.289l57.458 57.458c8.534 8.534 19.911 13.084 31.289 13.084s23.325-4.551 31.289-13.084l0.569-0.569c8.534-8.534 13.084-19.911 13.084-31.289s-4.551-23.325-13.084-31.289l-57.458-57.458c-7.964-8.534-19.342-13.084-31.289-13.084zM340.764 338.346c-9.102 0-17.067-3.413-23.325-9.671l-57.458-57.458c-6.258-6.258-9.671-14.791-9.671-23.324s3.413-17.066 9.671-23.325l0.569-0.569c6.258-6.258 14.791-9.671 23.325-9.671 9.102 0 17.067 3.413 23.325 9.671l57.458 56.889c6.258 6.258 9.671 14.791 9.671 23.325s-3.413 17.066-9.671 23.325l-0.569 1.138c-6.258 6.258-14.222 9.671-23.325 9.671zM214.471 172.8c-1.707 0-2.845 0.569-3.982 1.707-2.275 2.276-2.275 5.689 0 7.964l80.213 80.214c2.276 2.276 5.689 2.276 7.964 0s2.276-5.689 0-7.964l-80.214-80.214c-1.138-1.138-2.275-1.707-3.982-1.707z" />
<glyph unicode="&#xe608;" d="M210.489 171.662c-0.569 0-1.138 0-1.707 0.569-1.707 0.569-2.275 2.276-2.275 3.982v88.747c0 1.707 1.138 2.844 2.275 3.982 1.707 0.569 3.413 0.569 4.551-0.569l57.458-44.374c1.138-0.569 1.138-5.689 0-6.827l-57.458-44.373c-0.569-0.569-1.707-1.138-2.845-1.138zM215.040 256.427v-71.68l46.080 35.84-46.080 35.84zM267.947 171.662c-0.569 0-1.138 0-1.707 0.569-1.707 0.569-2.276 2.276-2.276 3.982v88.747c0 1.707 1.138 2.844 2.276 3.982 1.707 0.569 3.413 0.569 4.551-0.569l57.458-44.374c1.138-0.569 1.707-2.276 1.707-3.413s-0.569-2.844-1.707-3.413l-57.458-44.373c-0.569-0.569-1.707-1.138-2.844-1.138zM272.498 256.427v-71.68l46.080 35.84-46.080 35.84zM113.778 226.845c0 80.213 64.854 145.066 145.066 145.066s145.066-64.853 145.066-145.066-64.853-145.066-145.067-145.066-145.066 64.853-145.066 145.066zM125.156 226.845c0-73.956 59.734-133.689 133.689-133.689s133.689 59.733 133.689 133.689-59.733 133.689-133.689 133.689-133.689-59.733-133.689-133.689z" />
<glyph unicode="&#xe609;" d="M228.125 85.76c-31.289 0-56.32 19.911-56.32 43.805s25.6 43.805 56.32 43.805 56.32-19.911 56.32-43.805-25.031-43.805-56.32-43.805zM228.125 161.991c-25.031 0-44.942-14.791-44.942-32.426s20.48-32.426 44.942-32.426c25.031 0 44.942 14.791 44.942 32.426s-19.911 32.426-44.942 32.426zM284.445 127.289l-11.378 22.755v210.489c0 2.844 1.707 5.12 4.551 5.689s5.12-0.569 6.258-3.413c15.929-36.978 36.409-47.218 51.2-54.044 9.102-4.551 16.498-7.965 19.342-16.498 3.413-10.24-1.138-24.462-16.498-52.906l-10.24 5.12c13.084 24.462 18.204 38.116 15.929 44.374-1.138 3.982-5.689 6.258-13.654 9.671-12.515 6.258-30.151 14.222-45.511 39.254v-210.489z" />
<glyph unicode="&#xe60a;" d="M227.555 161.991c-0.569 0-1.707 0-2.275 0.569-1.707 1.138-3.413 2.844-3.413 5.12v118.898c0 2.276 1.138 3.982 3.413 5.12 1.707 1.138 4.551 0.569 6.258-0.569l76.8-59.733c1.138-1.138 2.276-2.845 2.276-4.551s-0.569-3.413-2.276-4.551l-77.369-59.164c-1.138-0.569-2.275-1.138-3.413-1.138zM233.244 275.2v-95.574l62.009 47.786-62.009 47.786zM392.534 343.466h11.378v-233.245h-11.378v233.245zM364.089 343.466h11.378v-233.245h-11.378v233.245zM136.534 343.466h11.378v-233.245h-11.378v233.245zM375.466 121.6h-238.934v210.489h238.934v-210.489zM147.911 132.978h216.178v187.733h-216.178v-187.733zM369.778 332.089h28.445v-11.378h-28.445v11.378zM369.778 303.644h28.445v-11.378h-28.445v11.378zM369.778 275.2h28.445v-11.378h-28.445v11.378zM369.778 246.756h28.445v-11.378h-28.445v11.378zM369.778 218.311h28.445v-11.378h-28.445v11.378zM369.778 189.866h28.445v-11.378h-28.445v11.378zM369.778 161.422h28.445v-11.378h-28.445v11.378zM369.778 132.978h28.445v-11.378h-28.445v11.378zM108.089 343.466h11.378v-233.245h-11.378v233.245zM113.778 332.089h28.444v-11.378h-28.445v11.378zM113.778 303.644h28.444v-11.378h-28.445v11.378zM113.778 275.2h28.444v-11.378h-28.445v11.378zM113.778 246.756h28.444v-11.378h-28.445v11.378zM113.778 218.311h28.444v-11.378h-28.445v11.378zM113.778 189.866h28.444v-11.378h-28.445v11.378zM113.778 161.422h28.444v-11.378h-28.445v11.378zM113.778 132.978h28.444v-11.378h-28.445v11.378z" />
<glyph unicode="&#xe60b;" d="M369.778 127.289h-216.178v11.378c26.169 0 38.115 81.92 39.822 133.689 0 29.582 18.774 57.458 45.511 67.129 1.138 11.378 10.809 20.48 22.756 20.48s22.187-9.671 22.755-22.187c26.738-9.671 45.511-36.409 45.511-65.991 1.138-51.769 13.084-133.689 39.822-133.689v-10.809zM174.649 138.666h173.511c-26.169 31.858-29.582 121.173-29.582 133.689 0 26.169-17.635 49.493-41.529 56.32l-4.551 1.138 0.569 5.12c0 0.569 0 1.707 0 2.275 0 6.258-5.12 11.947-11.378 11.947s-11.378-5.12-11.378-11.378c0-0.569 0-0.569 0-1.138l0.569-5.12-4.551-1.707c-23.893-6.827-41.529-31.289-41.529-57.458 0-0.569-1.138-35.84-7.395-70.542-5.12-30.151-13.084-51.2-22.756-63.147zM259.982 86.329c-17.636 0-32.995 11.378-38.115 27.875l10.809 3.413c3.982-11.947 14.791-19.911 27.306-19.911s23.325 7.964 27.306 19.911l10.809-3.413c-5.12-17.067-20.48-27.875-38.115-27.875z" />
<glyph unicode="&#xe60c;" d="M141.084 84.622c-29.013 0-51.769 19.342-70.542 59.733-32.426 70.542 0 103.538 32.995 118.898 8.534 3.982 18.204 6.258 27.306 6.258 13.084 0 24.462-3.982 33.565-7.396 5.689-1.707 10.24-3.982 13.654-3.982 0.569 0 1.138 0 1.707 0 7.395 3.413 15.36 13.084 21.049 19.911 2.845 3.413 5.12 6.258 7.395 8.534 7.395 6.827 15.929 7.964 25.031 3.413 9.671-5.12 14.222-13.084 12.516-22.756-1.138-4.551-3.982-7.964-6.827-11.378-1.138-1.707-3.413-3.982-3.982-5.12 1.138-1.138 5.12-2.275 9.102-2.845l116.054 53.475 21.049 17.636 68.267 13.084 19.911-11.378-10.24-26.738-15.36 2.845-46.080-21.618-19.911 2.845-120.604-60.302c-2.275-1.707-5.12-5.12-4.551-6.827 1.138-2.276 4.551-3.413 10.24-5.12 2.276-0.569 5.12-1.707 7.964-2.844h0.569c4.551-1.707 14.222-5.689 13.084-19.911-1.138-13.654-11.947-19.342-18.774-19.911-1.138 0-2.844 0-5.12 0-7.964 0-26.738-1.138-34.133-3.982-1.707-1.138-5.12-7.964-7.395-13.654-6.827-15.36-17.066-39.254-42.098-50.631-12.516-6.827-24.462-10.24-35.84-10.24zM130.845 258.134c-7.965 0-15.36-1.707-22.186-5.12-41.529-19.342-50.631-54.044-27.306-103.538 16.498-35.84 36.409-52.906 60.302-52.906 9.671 0 19.911 2.844 31.858 7.964 21.049 9.671 30.151 30.151 36.409 44.942 3.982 9.671 7.395 16.498 12.516 19.342 9.102 4.551 28.445 5.12 38.116 5.12 2.276 0 3.982 0 4.551 0 1.707 0 7.964 2.276 8.534 9.671 0.569 5.12-1.707 6.258-6.258 8.534h-0.569c-2.276 1.138-4.551 1.707-7.396 2.276-6.827 2.276-13.654 3.982-17.066 11.378-3.982 9.102 3.413 17.635 8.534 21.049l0.569 0.569 122.88 62.578 20.48-3.413 46.649 21.618 10.809-2.276 1.707 9.671-7.396 5.12-61.44-11.378-19.911-17.066-120.036-55.182h-1.707c-4.551 0.569-18.774 2.845-20.48 12.516-1.138 6.258 2.845 10.809 6.827 14.791 1.707 2.275 3.982 4.551 4.551 6.258 0.569 3.413 0.569 6.827-6.258 10.24-2.275 1.138-3.982 1.707-5.689 1.707s-3.982-0.569-6.827-3.413c-1.707-1.138-3.413-3.982-6.258-7.396-6.258-7.964-15.36-18.773-25.031-23.324-6.258-2.845-14.222 0-23.893 3.413-8.534 2.845-18.204 6.258-29.582 6.258z" />
<glyph unicode="&#xe60d;" d="M145.066 117.049l-3.413 2.276c-56.889 34.702-105.245 133.689-106.951 138.24l-0.569 0.569c-0.569 1.138-1.138 5.12 2.276 9.671 2.276 2.845 5.689 4.551 9.671 4.551 1.138 0 1.706 0 1.706 0l131.982-25.031 35.271 20.48 32.427-16.498 130.845 38.115 12.515 14.222 70.542-23.894 10.24-23.893-39.822 4.551-44.373 0.569-124.587-41.529c0 0-1.707-1.138-2.276-4.551-0.569-2.276 0-3.982 0-4.551l51.2-34.134c1.138-1.138 9.102-6.827 7.964-14.791-1.138-7.396-9.102-10.24-15.36-10.24-1.138 0-62.009 13.084-85.902 13.084-9.102 0-10.809 0-10.809-0.569-1.707-1.138-12.516-9.102-22.186-17.067-10.24-7.964-22.756-18.204-36.409-27.875l-3.982-1.707zM45.511 260.978c5.689-11.947 49.494-97.28 98.987-129.707 11.947 8.534 23.325 17.635 32.995 25.031 17.066 13.654 22.756 18.204 26.169 19.342 1.138 0.569 3.413 0.569 14.222 0.569 23.893 0 85.334-13.084 85.902-13.084 1.138 0 3.413 0.569 3.982 1.138-0.569 1.138-1.707 2.844-2.844 3.413l-51.769 34.133c-1.138 0.569-6.258 3.982-4.551 15.36s9.671 13.654 10.24 14.222l126.293 42.098 46.649-0.569 21.049-2.275-0.569 1.138-58.596 19.911-9.671-11.378-139.378-40.391-31.858 15.929-31.289-20.48-134.827 26.169c-0.569 0-0.569 0-1.138-0.569 0.569 0 0 0 0 0z" />
<glyph unicode="&#xe60e;" d="M259.413 121.031c-89.885 0-166.115 102.969-166.115 102.969s76.231 102.969 166.115 102.969 166.115-102.969 166.115-102.969-76.231-102.969-166.115-102.969zM105.814 224c13.085-16.498 77.369-92.729 153.6-92.729s140.515 76.8 153.6 92.729c-13.084 16.498-77.369 92.729-153.6 92.729s-140.516-76.231-153.6-92.729zM263.964 146.062c-43.236 0-77.938 35.271-77.938 77.938s35.271 77.938 77.938 77.938c43.236 0 77.938-35.271 77.938-77.938s-34.702-77.938-77.938-77.938zM263.964 293.974c-38.685 0-69.974-31.289-69.974-69.974s31.289-69.974 69.974-69.974 69.974 31.289 69.974 69.974-31.289 69.974-69.974 69.974zM303.786 237.654c-10.24 0-18.774 8.534-18.774 18.774s8.534 18.774 18.774 18.774c10.24 0 18.774-8.534 18.774-18.774s-8.534-18.774-18.774-18.774zM303.786 271.786c-7.964 0-14.791-6.827-14.791-14.791s6.827-14.791 14.791-14.791 14.791 6.827 14.791 14.791c-0.569 7.964-6.827 14.791-14.791 14.791zM263.964 194.986c-15.929 0-29.013 13.084-29.013 29.014s13.084 29.013 29.013 29.013c15.929 0 29.014-13.084 29.014-29.013s-13.084-29.014-29.014-29.014zM263.964 249.031c-13.654 0-25.031-11.378-25.031-25.031s11.378-25.031 25.031-25.031 25.031 11.378 25.031 25.031-11.378 25.031-25.031 25.031z" />
<glyph unicode="&#xe60f;" d="M164.978 229.689h176.356v-11.378h-176.356v11.378zM209.351 275.2l7.964-8.534-46.649-40.96 46.649-41.529-7.964-8.534-55.751 50.062z" />
<glyph unicode="&#xe610;" d="M289.565 71.538c-73.956 0-151.325 44.373-157.582 48.356l-44.374 19.911-13.653 27.306 5.689 2.276c0.569 0 35.84 13.654 49.494 23.325 10.24 7.964 26.738 44.942 32.427 59.165l12.516 52.338 22.186-20.48 12.516 60.871 25.6-30.72 23.324 67.129 23.894-48.924 22.755 79.075 39.822-102.4 6.258 67.129 26.169-80.213 15.36 34.702 13.084-64.854 13.654 21.618 3.413-13.085c1.138-3.982 23.325-92.16-19.342-151.893-21.049-29.582-54.613-46.649-99.555-50.631-3.982 0-9.102 0-13.654 0zM96.142 148.338l41.529-18.774c0.569-0.569 79.644-46.649 151.893-46.649 4.551 0 9.102 0 13.084 0.569 41.529 3.413 72.249 18.774 91.022 46.080 30.151 42.098 24.462 102.4 20.48 129.138l-14.222-22.755-11.378 58.026-13.084-29.582-18.204 56.32-5.689-60.302-45.511 116.054-21.618-75.662-25.031 51.2-21.049-60.302-23.325 28.445-11.946-57.458-22.756 20.48-7.964-34.702c-2.275-5.689-21.618-53.475-36.409-64.853-11.378-8.534-35.271-18.204-46.080-22.755l6.258-12.515zM204.8 142.649c-23.325 0-42.098 18.774-42.098 42.098s18.774 42.098 42.098 42.098c23.325 0 42.098-18.774 42.098-42.098s-18.774-42.098-42.098-42.098zM204.8 215.466c-17.066 0-30.72-13.654-30.72-30.72s13.654-30.72 30.72-30.72c17.066 0 30.72 13.654 30.72 30.72s-13.654 30.72-30.72 30.72zM200.249 184.747c0-5.027-4.075-9.102-9.102-9.102s-9.102 4.075-9.102 9.102c0 5.027 4.075 9.102 9.102 9.102s9.102-4.075 9.102-9.102zM224.711 47.644c0 0 1.707 8.534 11.378 8.534 7.395 0 9.671-3.982 9.671-3.982l7.964 0.569c0 0-5.12 7.964-17.066 7.964-19.911 0-19.911-16.498-19.911-17.067v-1.707h19.911l2.845 5.689h-14.791zM278.755 36.267h-46.649c0 0 4.551 21.049 26.738 21.049s19.911-18.774 19.911-18.774v-2.276zM239.502 41.955h32.426c-1.138 5.689-4.551 10.24-16.498 10.24-11.378 0-14.791-4.551-15.929-10.24zM327.111 47.644c0 0 1.707 8.534 11.378 8.534 7.396 0 9.671-3.982 9.671-3.982l7.964 0.569c0 0-5.12 7.964-17.067 7.964-19.911 0-19.911-16.498-19.911-17.067v-1.707h19.911l2.844 5.689h-14.791zM381.156 36.267h-46.649c0 0 4.551 21.049 26.738 21.049s19.911-18.774 19.911-18.774v-2.276zM341.902 41.955h32.426c-1.138 5.689-4.551 10.24-16.498 10.24-11.378 0-14.791-4.551-15.929-10.24zM95.004 150.613l-2.844 5.689 19.342 1.707 5.12 14.791 7.395 3.413-7.965-23.894z" />
<glyph unicode="&#xe611;" d="M180.906 158.009l-9.102 6.827 43.236 55.751 27.875-22.187 35.84 59.164 56.32-93.298-10.24-5.689-46.080 77.369-32.427-54.614-29.013 23.325zM213.333 235.378c-14.222 0-25.6 11.378-25.6 25.6s11.378 25.6 25.6 25.6 25.6-11.378 25.6-25.6-11.378-25.6-25.6-25.6zM213.333 275.2c-7.964 0-14.222-6.258-14.222-14.222s6.258-14.222 14.222-14.222 14.222 6.258 14.222 14.222-6.258 14.222-14.222 14.222zM108.089 226.845c0 80.213 64.853 145.066 145.066 145.066s145.066-64.853 145.066-145.066-64.853-145.066-145.066-145.066-145.066 64.853-145.066 145.066zM386.844 226.845c0 73.956-59.733 133.689-133.689 133.689s-133.689-59.733-133.689-133.689 59.733-133.689 133.689-133.689 133.689 59.733 133.689 133.689z" />
<glyph unicode="&#xe612;" d="M253.155 81.778c-80.213 0-145.066 64.853-145.066 145.066s64.853 145.066 145.066 145.066 145.066-64.853 145.066-145.066-64.853-145.066-145.066-145.066zM253.155 360.534c-73.956 0-133.689-59.733-133.689-133.689s59.733-133.689 133.689-133.689 133.689 59.733 133.689 133.689-59.733 133.689-133.689 133.689zM242.916 193.28l-0.569 5.12c-1.138 10.809 2.275 22.755 12.516 34.702 9.102 10.809 14.222 18.204 14.222 27.307 0 10.24-6.258 17.066-18.774 17.066-7.395 0-15.36-2.276-19.911-6.258l-4.551 12.515c6.827 4.551 18.204 7.964 28.445 7.964 22.755 0 32.995-14.222 32.995-29.582 0-13.654-7.396-23.325-17.067-34.702-8.534-10.24-11.947-19.342-11.378-29.014v-5.12h-15.929zM238.364 164.836c0 7.396 5.12 12.515 11.946 12.515s11.947-5.12 11.947-12.515c0-6.827-4.551-12.515-11.947-12.515-6.827 0.569-11.947 5.689-11.947 12.515z" />
<glyph unicode="&#xe613;" d="M159.289 229.689h176.356v-11.378h-176.356v11.378zM292.978 175.644l-7.396 8.534 46.649 41.529-46.649 40.96 7.396 8.534 56.32-49.494z" />
<glyph unicode="&#xe614;" d="M318.578 93.156h-124.587c-9.671 0-17.636 7.396-17.636 17.067v51.2c0 9.671 7.395 17.067 17.066 17.067h124.587c9.671 0 17.635-7.396 17.635-17.067v-51.2c0-9.671-7.396-17.067-17.067-17.067zM193.422 167.111c-3.413 0-5.689-2.844-5.689-5.689v-51.2c0-3.413 2.845-5.689 5.689-5.689h125.155c3.413 0 5.689 2.844 5.689 5.689v51.2c0 3.413-2.844 5.689-5.689 5.689h-125.156zM318.578 178.489h-11.378v102.4c0 0 0 23.324-14.791 38.115-8.534 8.534-21.049 13.084-36.409 13.084s-27.875-4.551-36.409-13.084c-14.791-14.791-14.791-38.115-14.791-38.115v-102.4h-11.378v102.4c0 1.138 0 27.875 18.204 46.080 10.809 10.809 25.6 16.498 44.373 16.498s33.565-5.689 44.373-16.498c18.204-18.204 18.204-44.942 18.204-46.080v-102.4z" />
<glyph unicode="&#xe615;" d="M253.155 81.778c-80.213 0-145.066 64.853-145.066 145.066s64.853 145.066 145.066 145.066 145.066-64.853 145.066-145.066-64.853-145.066-145.066-145.066zM253.155 360.534c-73.956 0-133.689-59.733-133.689-133.689s59.733-133.689 133.689-133.689 133.689 59.733 133.689 133.689-59.733 133.689-133.689 133.689zM176.356 141.511c-1.138 0-1.707 0-2.845 0.569-2.845 1.707-3.982 5.12-2.275 7.964 2.275 4.551 9.671 7.964 26.169 14.791 7.395 2.844 19.342 7.964 21.618 10.24 0.569 3.982-0.569 9.102-1.707 11.378-2.275 2.276-7.395 9.102-8.534 17.067-3.413 1.707-7.964 6.258-10.809 14.791-2.845 9.102 0 15.929 3.413 19.911-7.395 35.271 1.138 46.649 5.12 51.2l0.569 0.569c6.827 9.671 26.738 30.151 67.129 9.671 9.102-2.276 15.929-7.965 19.911-15.929 8.534-15.929 3.982-37.547 1.707-46.080 3.413-3.982 6.258-9.671 3.982-17.635-2.276-7.396-6.258-11.378-9.102-13.654-1.138-8.534-6.258-17.635-7.964-21.049-0.569-3.413-1.138-7.396-0.569-9.102 1.707-1.138 6.258-3.413 9.671-5.12 10.809-5.12 25.6-11.947 34.134-20.48 2.276-2.276 2.276-5.689 0-7.964s-5.689-2.276-7.964 0c-7.396 7.396-21.049 13.654-31.289 18.204-9.102 4.551-12.515 6.258-14.222 8.534-3.413 5.12-1.707 15.36-0.569 19.342v1.138l0.569 0.569c2.844 4.551 7.396 14.222 7.396 18.774v3.982l3.982 1.707c0 0 3.982 1.707 5.689 7.964 1.138 5.12-2.276 7.964-2.844 7.964l-3.413 2.275 1.138 3.982c0 0 8.534 25.6 0 40.96-2.844 5.12-7.396 8.534-13.654 10.24l-1.138 0.569c-23.325 11.947-42.666 9.671-53.476-5.689-0.569-0.569-0.569-1.138-1.138-1.138-2.845-3.413-9.671-12.515-2.275-45.511l1.138-3.982-3.413-2.275c-0.569-0.569-3.982-2.845-2.275-9.671 2.275-7.396 6.258-8.534 6.258-8.534l5.12-0.569-0.569-5.12c-0.569-4.551 3.982-11.378 6.258-13.654l0.569-0.569 0.569-1.138c0.569-1.138 4.551-11.947 2.275-20.48-1.707-5.689-9.671-9.671-28.445-17.067-7.395-2.844-18.774-7.964-20.48-9.671 0.569-1.138-1.707-2.276-3.413-2.276zM348.16 153.458c-1.138 0-2.844 0.569-3.982 1.707-5.12 5.12-14.791 9.671-21.618 12.515-6.827 3.413-9.671 4.551-10.809 6.827-2.844 3.982-1.707 10.809-0.569 14.791v1.138l0.569 0.569c2.276 3.413 5.12 9.671 5.12 12.515v3.982l3.982 1.707c0 0 2.276 1.138 3.413 4.551 0.569 2.276-0.569 3.413-1.138 3.982l-4.551 2.276 1.138 3.982c1.707 4.551 4.551 19.342 0 27.306-1.707 3.413-4.551 5.12-8.534 6.258-2.844 0.569-5.12 3.982-3.982 6.827s3.982 5.12 6.827 3.982c6.827-1.707 12.515-5.689 15.929-11.946 6.258-11.378 3.413-26.169 1.707-32.995 2.276-2.844 3.982-7.396 2.276-13.084-1.707-5.12-4.551-7.964-6.827-10.24-1.138-5.689-4.551-11.947-5.689-14.222-0.569-1.707-0.569-3.982-0.569-5.12 1.138-0.569 3.982-1.707 6.258-2.844 7.396-3.413 18.204-8.534 24.462-14.791 2.276-2.276 2.276-5.689 0-7.964-0.569-1.138-2.276-1.707-3.413-1.707z" />
<glyph unicode="&#xe616;" d="M253.155 81.778c-80.213 0-145.066 64.853-145.066 145.066s64.853 145.066 145.066 145.066 145.066-64.853 145.066-145.066-64.853-145.066-145.066-145.066zM253.155 360.534c-73.956 0-133.689-59.733-133.689-133.689s59.733-133.689 133.689-133.689 133.689 59.733 133.689 133.689-59.733 133.689-133.689 133.689zM179.769 141.511c-1.138 0-1.707 0-2.845 0.569-2.845 1.707-3.982 5.12-2.275 7.964 2.275 4.551 9.671 7.964 26.169 14.791 7.395 2.844 19.342 7.964 21.618 10.24 0.569 3.982-0.569 9.102-1.707 11.378-2.275 2.276-7.395 9.102-8.534 17.067-3.413 1.707-7.964 6.258-10.809 14.791-2.845 9.102 0 15.929 3.413 19.911-7.395 35.271 1.138 46.649 5.12 51.2l0.569 0.569c6.827 9.671 26.738 30.151 67.129 9.671 9.102-2.276 15.929-7.965 19.911-15.929 8.534-15.929 3.982-37.547 1.707-46.080 3.413-3.982 6.258-9.671 3.982-17.635-2.276-7.396-6.258-11.378-9.102-13.654-1.138-8.534-6.258-17.635-7.964-21.049-0.569-3.413-1.138-7.396-0.569-9.102 1.707-1.138 6.258-3.413 9.671-5.12 10.809-5.12 25.6-11.947 34.134-20.48 2.276-2.276 2.276-5.689 0-7.964s-5.689-2.276-7.964 0c-7.396 7.396-21.049 13.654-31.289 18.204-9.102 4.551-12.515 6.258-14.222 8.534-3.413 5.12-1.707 15.36-0.569 19.342v1.138l0.569 0.569c2.844 4.551 7.396 14.222 7.396 18.774v3.982l3.982 1.707c0 0 3.982 1.707 5.689 7.964 1.707 5.12-2.844 7.964-2.844 7.964l-3.413 2.275 1.138 3.982c0 0 8.534 25.6 0 40.96-2.844 5.12-7.396 8.534-13.654 10.24l-1.138 0.569c-23.325 11.947-42.666 9.671-53.476-5.689-0.569-0.569-0.569-1.138-1.138-1.138-2.845-3.413-9.671-12.515-2.275-45.511l1.138-3.982-3.413-2.275c-0.569-0.569-3.982-2.845-2.275-9.671 2.275-7.396 6.258-8.534 6.827-8.534l4.551-1.138v-5.12c-0.569-4.551 3.982-11.378 6.258-13.654l0.569-0.569 0.569-1.138c0.569-1.138 4.551-11.947 2.275-20.48-1.707-5.689-9.671-9.671-28.445-17.067-7.395-2.844-18.774-7.964-20.48-9.671 0-0.569-1.707-1.707-3.982-1.707z" />
<glyph unicode="&#xe617;" d="M335.644 93.156c-1.138 0-2.844 0.569-3.982 1.707l-75.662 69.974-75.662-69.974c-1.707-1.707-3.982-1.707-6.258-1.138s-3.413 2.844-3.413 5.12v250.311c0 3.413 2.275 5.689 5.689 5.689h159.289c3.413 0 5.689-2.275 5.689-5.689v-250.311c0-2.276-1.138-4.551-3.413-5.12-0.569-0.569-1.707-0.569-2.276-0.569zM256 178.489c1.138 0 2.844-0.569 3.982-1.707l69.974-64.853v231.538h-147.911v-231.538l69.974 64.853c1.138 1.138 2.845 1.707 3.982 1.707z" />
<glyph unicode="&#xe618;" d="M364.089 98.844h-221.298c-9.671 0-17.636 7.396-17.636 17.067v199.111c0 9.671 7.395 17.066 17.066 17.066h221.298c9.671 0 17.635-7.395 17.635-17.066v-199.111c0-9.671-7.396-17.067-17.067-17.067zM142.222 320.711c-3.413 0-5.689-2.845-5.689-5.689v-199.111c0-3.413 2.845-5.689 5.689-5.689h221.867c3.413 0 5.689 2.844 5.689 5.689v199.111c0 3.413-2.844 5.689-5.689 5.689h-221.867zM176.356 303.644c-3.413 0-5.689 2.275-5.689 5.689v34.134c0 3.413 2.275 5.689 5.689 5.689s5.689-2.275 5.689-5.689v-34.134c0-3.413-2.275-5.689-5.689-5.689zM256 303.644c-3.413 0-5.689 2.275-5.689 5.689v34.134c0 3.413 2.275 5.689 5.689 5.689s5.689-2.275 5.689-5.689v-34.134c0-3.413-2.276-5.689-5.689-5.689zM335.644 303.644c-3.413 0-5.689 2.275-5.689 5.689v34.134c0 3.413 2.276 5.689 5.689 5.689s5.689-2.275 5.689-5.689v-34.134c0-3.413-2.276-5.689-5.689-5.689zM136.534 263.822h233.245v-11.378h-233.244v11.378z" />
<glyph unicode="&#xe619;" d="M318.578 93.156h-124.587c-9.671 0-17.636 7.396-17.636 17.067v51.2c0 9.671 7.395 17.067 17.066 17.067h124.587c9.671 0 17.635-7.396 17.635-17.067v-51.2c0-9.671-7.396-17.067-17.067-17.067zM193.422 167.111c-3.413 0-5.689-2.844-5.689-5.689v-51.2c0-3.413 2.845-5.689 5.689-5.689h125.155c3.413 0 5.689 2.844 5.689 5.689v51.2c0 3.413-2.844 5.689-5.689 5.689h-125.156zM204.8 178.489h-11.378v102.4c0 1.138 0 27.875 18.204 46.080 10.809 10.809 25.6 16.498 44.373 16.498s33.565-5.689 44.373-16.498c18.204-18.204 18.204-44.942 18.204-46.080v-68.267h-11.378v68.267c0 0 0 23.325-14.791 38.115-8.534 8.534-21.049 13.084-36.409 13.084s-27.875-4.551-36.409-13.084c-14.791-14.791-14.791-38.115-14.791-38.115v-102.4z" />
<glyph unicode="&#xe61a;" d="M108.089 226.845c0 80.213 64.853 145.066 145.066 145.066s145.066-64.853 145.066-145.066-64.853-145.066-145.066-145.066-145.066 64.853-145.066 145.066zM386.844 226.845c0 73.956-59.733 133.689-133.689 133.689s-133.689-59.733-133.689-133.689 59.733-133.689 133.689-133.689 133.689 59.733 133.689 133.689zM312.736 173.573l-8.045-8.045-124.299 124.299 8.045 8.045 124.299-124.299zM243.484 164.836l0.569 11.378 62.009-3.413-3.982 62.009 11.378 0.569 4.551-75.094z" />
<glyph unicode="&#xe61b;" d="M253.155 81.778c-80.213 0-145.066 64.853-145.066 145.066s64.853 145.066 145.066 145.066 145.066-64.853 145.066-145.066-64.853-145.066-145.066-145.066zM253.155 360.534c-73.956 0-133.689-59.733-133.689-133.689s59.733-133.689 133.689-133.689 133.689 59.733 133.689 133.689-59.733 133.689-133.689 133.689zM306.137 286.658l8.045-8.045-124.299-124.299-8.045 8.045 124.299 124.299zM315.164 217.173l-11.378 0.569 3.413 62.009-62.009-3.982-0.569 11.378 75.094 4.551z" />
<glyph unicode="&#xe61c;" d="M253.155 81.778c-80.213 0-145.066 64.853-145.066 145.066s64.853 145.066 145.066 145.066 145.066-64.853 145.066-145.066-64.853-145.066-145.066-145.066zM253.155 360.534c-73.956 0-133.689-59.733-133.689-133.689s59.733-133.689 133.689-133.689 133.689 59.733 133.689 133.689-59.733 133.689-133.689 133.689zM213.333 188.729c-1.707 0-3.413 0.569-4.551 2.276-1.707 2.276-2.845 6.258-0.569 7.964l36.409 28.445v73.956c0 3.413 2.275 5.689 5.689 5.689s5.689-2.275 5.689-5.689v-77.369c0-1.707 0.569-3.413-0.569-4.551l-39.254-29.582c-1.138-1.138-1.707-1.138-2.845-1.138z" />
<glyph unicode="&#xe61d;" d="M369.778 87.466h-221.867v164.978h68.266v-11.378h-56.889v-142.222h199.111v142.222h-51.2v11.378h62.578zM256 326.4h11.378v-159.289h-11.378v159.289zM303.218 279.751l-41.529 46.649-41.529-46.649-7.964 7.965 49.493 55.751 49.493-55.751z" />
<glyph unicode="&#xe61e;" d="M352.711 87.466h-221.867v216.178h170.667v-11.378h-159.289v-193.422h199.111v147.911h11.378zM384.52 337.56l8.045-8.045-124.299-124.299-8.045 8.045 124.299 124.299zM393.102 268.374l-11.378 0.569 3.982 62.009-62.009-3.982-1.138 11.378 75.094 4.551z" />
<glyph unicode="&#xe61f;" d="M253.155 81.778c-80.213 0-145.066 64.853-145.066 145.066s64.853 145.066 145.066 145.066 145.066-64.853 145.066-145.066-64.853-145.066-145.066-145.066zM253.155 360.534c-73.956 0-133.689-59.733-133.689-133.689s59.733-133.689 133.689-133.689 133.689 59.733 133.689 133.689-59.733 133.689-133.689 133.689zM275.911 279.751c0-10.996-8.914-19.911-19.911-19.911s-19.911 8.914-19.911 19.911c0 10.997 8.915 19.911 19.911 19.911s19.911-8.915 19.911-19.911zM264.534 239.929l-32.427-10.24-2.275-7.395 18.204-1.138-7.964-72.249 33.565 9.102v6.258l-14.222 0.569z" />
<glyph unicode="&#xe620;" d="M290.702 135.253l-95.573 88.747 95.573 88.746 21.618-26.169-63.715-62.578 63.715-62.578z" />
<glyph unicode="&#xe621;" d="M221.298 135.253l-21.618 26.169 63.716 62.578-63.715 62.578 21.618 26.169 95.573-88.746z" />
<glyph unicode="&#xe622;" d="M142.222 138.666h-56.889v102.4h56.889v-102.4zM96.711 150.045h34.133v79.644h-34.133v-79.644zM216.178 138.666h-56.889v68.267h56.889v-68.267zM170.667 150.045h34.133v45.511h-34.133v-45.511zM284.445 138.666h-56.889v125.156h56.889v-125.156zM238.934 150.045h34.133v102.4h-34.133v-102.4zM358.4 138.666h-56.889v164.978h56.889v-164.978zM312.889 150.045h34.134v142.222h-34.134v-142.222zM426.666 138.666h-56.889v85.334h56.889v-85.334zM381.156 150.045h34.133v62.578h-34.134v-62.578z" />
<glyph unicode="&#xe623;" d="M323.129 81.778h-139.946c-2.845 0-5.12 1.707-5.689 4.551l-33.565 192.853c-0.569 1.707 0 3.413 1.138 4.551s2.845 2.276 4.551 2.276h207.076c1.707 0 3.413-0.569 4.551-2.276 1.138-1.138 1.707-2.844 1.138-4.551l-33.565-192.853c-0.569-2.844-3.413-4.551-5.689-4.551zM187.733 93.156h130.276l31.858 181.476h-193.422l31.289-181.476zM292.978 300.8c-2.276 0-4.551 1.138-5.12 3.413l-11.378 26.738-40.96 2.275-14.222-25.031c-1.707-2.845-5.12-3.413-7.964-2.276-2.845 1.707-3.413 5.12-2.275 7.964l15.929 27.875c1.138 1.707 3.413 2.845 5.12 2.845l48.356-2.845c2.276 0 3.982-1.707 5.12-3.413l12.515-29.582c1.138-2.845 0-6.258-2.844-7.395-0.569 0-1.707-0.569-2.276-0.569zM374.898 296.249c0 0-0.569 0 0 0l-245.76 14.791c-3.413 0-5.689 2.845-5.12 6.258 0 3.413 2.844 5.689 6.258 5.12l245.191-14.791c3.413 0 5.689-2.844 5.12-6.258-0.569-2.845-2.844-5.12-5.689-5.12z" />
<glyph unicode="&#xe624;" d="M126.862 136.96v0c-9.102 0-17.067 3.982-22.755 10.809s-7.965 15.929-5.689 25.031c2.275 10.809 10.809 19.342 22.186 22.187 11.378 2.276 22.756-1.707 29.582-10.24 5.689-6.827 7.964-15.929 5.689-25.031-2.275-10.809-10.809-19.342-22.186-22.187-2.275-0.569-4.551-0.569-6.826-0.569zM126.862 184.178c-1.138 0-2.844 0-3.982-0.569-6.258-1.707-11.947-6.827-13.085-13.084-1.138-5.689 0-11.378 3.413-15.36 3.413-4.551 8.534-6.827 14.222-6.827v0c1.138 0 2.845 0 3.982 0.569 6.258 1.707 11.946 6.827 13.084 13.084 1.138 5.689 0 11.378-3.413 15.36-3.413 4.551-8.534 6.827-14.222 6.827zM208.782 218.311v0c-9.102 0-17.066 3.982-22.756 10.809s-7.964 15.929-5.689 25.031c2.275 10.809 10.809 19.342 22.186 22.186 11.378 2.275 22.756-1.707 29.582-10.24 5.689-6.827 7.964-15.929 5.689-25.031-2.275-10.809-10.809-19.342-22.186-22.187-2.845-0.569-4.551-0.569-6.827-0.569zM208.782 265.529c-1.138 0-2.845 0-3.982-0.569-6.258-1.707-11.947-6.827-13.084-13.085-1.138-5.689 0-11.378 3.413-15.36 3.413-4.551 8.534-6.827 14.222-6.827v0c1.138 0 2.845 0 3.982 0.569 6.258 1.707 11.947 6.827 13.084 13.084 1.138 5.689 0 11.378-3.413 15.36-3.982 4.551-9.102 6.827-14.222 6.827zM391.396 246.756v0c-9.102 0-17.067 3.982-22.755 10.809s-7.964 15.929-5.689 25.031c2.276 10.809 10.809 19.342 22.187 22.187 11.378 2.275 22.755-1.707 29.582-10.24 5.689-6.827 7.964-15.929 5.689-25.031-2.276-10.809-10.809-19.342-22.187-22.186-2.276-0.569-4.551-0.569-6.827-0.569zM391.396 293.974c-1.138 0-2.844 0-3.982-0.569-6.258-1.707-11.947-6.827-13.084-13.084-1.138-5.689 0-11.378 3.413-15.36 3.413-4.551 8.534-6.827 14.222-6.827v0c1.138 0 2.844 0 3.982 0.569 6.258 1.707 11.947 6.827 13.084 13.085 1.138 5.689 0 11.378-3.413 15.36-3.413 4.551-8.534 6.827-14.222 6.827zM307.769 138.666c0 0 0 0 0 0-10.24 0-20.48 5.689-25.6 14.791-5.689 9.671-5.12 21.049 0.569 31.289 1.707 3.413 4.551 6.258 7.964 7.964 5.12 2.844 10.809 4.551 16.498 4.551 10.24 0 20.48-5.689 25.6-14.791 5.689-9.671 5.12-21.049-0.569-31.289-1.707-3.413-4.551-6.258-7.964-7.964-5.12-2.844-10.809-4.551-16.498-4.551zM307.769 185.885c-3.413 0-7.396-1.138-10.809-3.413-1.707-1.138-2.844-2.276-3.982-3.982-3.982-6.827-3.982-13.654-0.569-19.911 3.413-5.689 9.102-9.102 15.36-9.102 0 0 0 0 0 0 3.413 0 7.396 1.138 10.809 3.413 1.707 1.138 2.844 2.276 3.982 3.982 3.982 6.827 3.982 13.654 0.569 19.911-2.844 5.689-9.102 9.102-15.36 9.102zM362.538 252.163l8.564-7.491-39.703-45.389-8.564 7.491 39.703 45.389zM239.777 224.311l39.74-34.061-7.404-8.639-39.74 34.062 7.405 8.639zM181.149 224.397l7.282-8.743-34.096-28.399-7.282 8.743 34.096 28.399z" />
<glyph unicode="&#xe625;" d="M347.022 81.778h-187.733c-9.671 0-17.066 7.964-17.066 17.635v249.742c0 9.671 7.395 17.067 17.066 17.067h131.982c3.982 0 7.964-1.707 11.378-3.982l55.751-56.889c3.413-2.845 5.689-7.964 5.689-13.084v-193.422c0-9.671-7.396-17.067-17.067-17.067zM159.289 354.844c-3.413 0-5.689-2.844-5.689-5.689v-250.311c0-3.413 2.845-5.689 5.689-5.689h187.733c3.413 0 5.689 2.844 5.689 5.689v193.422c0 1.707-0.569 3.413-2.276 4.551l-55.751 56.889c-0.569 0.569-2.276 1.138-3.413 1.138h-131.982zM358.4 292.267h-68.267v68.267h11.378v-56.889h56.889zM210.489 212.622h79.645v-11.378h-79.644v11.378zM244.622 246.756h11.378v-79.645h-11.378v79.644z" />
<glyph unicode="&#xe626;" d="M142.222 64.711c-3.413 0-5.689 2.276-5.689 5.689v125.156c0 3.413 2.275 5.689 5.689 5.689s5.689-2.276 5.689-5.689v-125.156c0-3.413-2.275-5.689-5.689-5.689zM184.889 183.609c-34.702 0-45.511 8.534-46.649 9.671s-1.707 2.276-1.707 3.982v170.666c0 2.276 1.138 3.982 2.845 5.12s3.982 1.138 5.689 0c0 0 14.791-8.534 46.649-8.534 19.342 0 40.391 2.845 63.147 9.102 23.894 6.258 45.511 9.671 64.284 9.671 33.565 0 47.786-9.671 48.356-10.24 1.707-1.138 2.276-2.844 2.276-4.551v-170.666c0-2.276-1.707-4.551-3.982-5.12s-4.551 0-6.258 1.707v0c0 0-7.396 6.258-34.134 6.258-18.204 0-40.96-2.844-68.267-7.964-27.875-6.258-52.338-9.102-72.249-9.102zM147.911 200.675c3.982-1.707 14.791-5.689 36.978-5.689 19.342 0 42.666 2.844 69.974 7.964 27.875 5.689 51.769 8.534 70.542 8.534 15.929 0 26.738-2.276 32.995-4.551v157.582c-5.12 2.275-17.067 6.827-39.254 6.827-18.204 0-38.685-2.845-61.44-9.102-23.893-6.258-46.080-9.671-65.991-9.671-21.049 0-35.271 3.413-43.804 6.258v-158.151z" />
<glyph unicode="&#xe627;" d="M131.982 81.778l-10.809 120.036-76.8 65.991 424.96 96.142-208.214-272.498-60.871 45.511-68.266-55.182zM68.835 261.547l63.147-54.045 9.671-102.969 58.595 47.786 59.164-44.373 182.045 238.365-372.622-84.764zM138.809 88.036l-18.773 120.036 332.8 151.894 5.689-10.24-283.875-182.045-35.84-79.644zM133.12 201.245l11.378-73.387 21.049 47.218 1.707 1.138 218.453 140.516-252.587-115.485zM173.841 175.603l30.189-26.836-7.559-8.504-30.189 26.836 7.559 8.504z" />
<glyph unicode="&#xe628;" d="M210.489 201.245h11.378v-34.134h-11.378v34.134zM244.622 224h11.378v-56.889h-11.378v56.889zM278.755 206.933h11.378v-39.822h-11.378v39.822zM347.022 81.778h-187.733c-9.671 0-17.066 7.964-17.066 17.635v249.742c0 9.671 7.395 17.067 17.066 17.067h131.982c3.982 0 7.964-1.707 11.378-3.982l55.751-56.889c3.413-2.845 5.689-7.964 5.689-13.084v-193.422c0-9.671-7.396-17.067-17.067-17.067zM159.289 354.844c-3.413 0-5.689-2.844-5.689-5.689v-250.311c0-3.413 2.845-5.689 5.689-5.689h187.733c3.413 0 5.689 2.844 5.689 5.689v193.422c0 1.707-0.569 3.413-2.276 4.551l-55.751 56.889c-0.569 0.569-2.276 1.138-3.413 1.138h-131.982zM358.4 292.267h-68.267v68.267h11.378v-56.889h56.889z" />
<glyph unicode="&#xe629;" d="M210.489 212.622h79.645v-11.378h-79.644v11.378zM347.022 81.778h-187.733c-9.671 0-17.066 7.964-17.066 17.635v249.742c0 9.671 7.395 17.067 17.066 17.067h131.982c3.982 0 7.964-1.707 11.378-3.982l55.751-56.889c3.413-2.845 5.689-7.964 5.689-13.084v-193.422c0-9.671-7.396-17.067-17.067-17.067zM159.289 354.844c-3.413 0-5.689-2.844-5.689-5.689v-250.311c0-3.413 2.845-5.689 5.689-5.689h187.733c3.413 0 5.689 2.844 5.689 5.689v193.422c0 1.707-0.569 3.413-2.276 4.551l-55.751 56.889c-0.569 0.569-2.276 1.138-3.413 1.138h-131.982zM358.4 292.267h-68.267v68.267h11.378v-56.889h56.889z" />
<glyph unicode="&#xe62a;" d="M210.489 212.622h56.889v-11.378h-56.889v11.378zM210.489 172.8h79.645v-11.378h-79.644v11.378zM210.489 252.445h79.645v-11.378h-79.644v11.378zM347.022 81.778h-187.733c-9.671 0-17.066 7.964-17.066 17.635v249.742c0 9.671 7.395 17.067 17.066 17.067h131.982c3.982 0 7.964-1.707 11.378-3.982l55.751-56.889c3.413-2.845 5.689-7.964 5.689-13.084v-193.422c0-9.671-7.396-17.067-17.067-17.067zM159.289 354.844c-3.413 0-5.689-2.844-5.689-5.689v-250.311c0-3.413 2.845-5.689 5.689-5.689h187.733c3.413 0 5.689 2.844 5.689 5.689v193.422c0 1.707-0.569 3.413-2.276 4.551l-55.751 56.889c-0.569 0.569-2.276 1.138-3.413 1.138h-131.982zM358.4 292.267h-68.267v68.267h11.378v-56.889h56.889z" />
<glyph unicode="&#xe62b;" d="M347.022 81.778h-187.733c-9.671 0-17.066 7.964-17.066 17.635v249.742c0 9.671 7.395 17.067 17.066 17.067h131.982c3.982 0 7.964-1.707 11.378-3.982l55.751-56.889c3.413-2.845 5.689-7.964 5.689-13.084v-193.422c0-9.671-7.396-17.067-17.067-17.067zM159.289 354.844c-3.413 0-5.689-2.844-5.689-5.689v-250.311c0-3.413 2.845-5.689 5.689-5.689h187.733c3.413 0 5.689 2.844 5.689 5.689v193.422c0 1.707-0.569 3.413-2.276 4.551l-55.751 56.889c-0.569 0.569-2.276 1.138-3.413 1.138h-131.982zM358.4 292.267h-68.267v68.267h11.378v-56.889h56.889z" />
<glyph unicode="&#xe62c;" d="M210.489 87.466h91.022v-11.378h-91.022v11.378zM227.555 64.711h56.889v-11.378h-56.889v11.378zM307.769 98.844h-103.538l0.569 6.258c1.138 7.396 2.845 13.084 4.551 18.204 4.551 14.791 7.964 25.6-20.48 64.284-30.151 45.511-40.96 64.284-40.96 101.262 0 55.182 48.356 100.125 108.089 100.125s108.089-44.942 108.089-99.555c0-36.978-10.809-56.32-40.96-101.262-29.014-38.685-25.6-49.493-20.48-64.284 1.707-5.12 3.413-10.809 4.551-18.204l0.569-6.827zM217.315 110.222h77.369c-0.569 3.413-1.707 6.827-2.844 9.671-6.258 19.342-8.534 33.565 22.187 74.524 30.72 46.080 38.685 62.009 38.685 95.005 0 48.356-43.236 88.178-96.711 88.178s-96.711-39.822-96.711-88.178c0-32.426 7.964-48.356 38.685-95.005 30.151-40.96 27.875-54.613 22.186-74.524-1.138-2.844-2.275-6.258-2.845-9.671zM216.178 138.666h73.956v-11.378h-73.956v11.378z" />
<glyph unicode="&#xe62d;" d="M384 79.502l-11.378 1.707 5.12 26.169-168.96 259.982 9.102 6.258 172.374-263.396zM122.311 79.502l-6.258 30.72 178.062 235.52 9.102-7.395-174.649-230.969 5.12-26.169zM102.4 87.466h301.511v-11.378h-301.511v11.378zM279.325 76.089h-81.351l56.32 168.391 25.031-168.391zM205.938 81.778h66.56l-20.48 138.809-46.080-138.809zM199.111 87.466l-19.911 25.031 68.835 114.346-0.569-14.222-62.009-100.125 20.48-25.031z" />
<glyph unicode="&#xe62e;" d="M234.382 83.485c-50.062 0-98.418 26.738-124.018 73.956-17.636 32.995-21.618 71.111-10.809 106.951s34.702 65.422 67.698 83.626c68.267 36.978 153.6 11.378 190.578-56.889 18.204-33.565 13.084-69.974 8.534-95.005l-11.378 2.276c4.551 23.325 9.102 56.889-7.396 87.609-34.134 62.578-112.64 85.902-175.218 52.338-30.151-16.498-52.338-43.804-62.578-76.8-9.671-32.995-6.258-68.267 10.24-98.418 34.133-62.578 112.64-85.902 175.218-52.338l5.689-10.24c-21.049-11.947-44.373-17.067-66.56-17.067zM360.106 184.178l-42.098 62.009 9.102 6.258 35.271-51.2 46.649 40.96 7.396-8.534z" />
<glyph unicode="&#xe62f;" d="M256 76.089c-81.351 0-147.911 66.56-147.911 147.911s66.56 147.911 147.911 147.911 147.911-66.56 147.911-147.911-66.56-147.911-147.911-147.911zM256 360.534c-75.094 0-136.534-61.44-136.534-136.534s61.44-136.534 136.534-136.534 136.534 61.44 136.534 136.534-61.44 136.534-136.534 136.534zM182.044 224h142.222v-11.378h-142.222v11.378z" />
<glyph unicode="&#xe630;" d="M407.325 56.178h-302.649c-6.258 0-12.516 3.413-15.929 8.534-3.413 5.689-3.413 11.947-0.569 18.204l151.325 302.649c3.413 6.258 9.671 10.24 16.498 10.24s13.654-3.982 16.498-10.24l151.325-302.649c2.844-5.689 2.844-12.515-0.569-18.204-3.413-5.12-9.671-8.534-15.929-8.534zM256 384.427c-2.845 0-5.12-1.707-6.258-3.982l-151.325-302.649c-1.138-2.276-1.138-4.551 0.569-6.827 1.138-2.276 3.413-3.413 6.258-3.413h302.649c2.276 0 4.551 1.138 6.258 3.413 1.138 2.276 1.707 4.551 0.569 6.827l-152.462 302.649c-1.138 2.276-3.413 3.982-6.258 3.982zM256 98.844c-15.929 0-28.445 12.515-28.445 28.445s12.516 28.445 28.445 28.445 28.445-12.515 28.445-28.445-12.515-28.445-28.445-28.445zM256 144.356c-9.671 0-17.066-7.396-17.066-17.067s7.395-17.067 17.066-17.067 17.067 7.396 17.067 17.067-7.396 17.067-17.067 17.067zM272.498 172.8h-32.995l-12.516 102.4h58.595l-13.084-102.4zM249.742 184.178h12.516l10.24 79.644h-32.427l9.671-79.644z" />
<glyph unicode="&#xe631;" d="M256 76.089c-81.351 0-147.911 66.56-147.911 147.911s66.56 147.911 147.911 147.911 147.911-66.56 147.911-147.911-66.56-147.911-147.911-147.911zM256 360.534c-75.094 0-136.534-61.44-136.534-136.534s61.44-136.534 136.534-136.534 136.534 61.44 136.534 136.534-61.44 136.534-136.534 136.534zM261.689 132.978h-11.378v79.644h-79.644v11.378h79.644v79.644h11.378v-79.644h79.644v-11.378h-79.644z" />
<glyph unicode="&#xe632;" d="M201.387 102.827l-77.369 76.231 7.964 7.964 68.266-67.129 179.2 220.16 9.102-6.827z" />
<glyph unicode="&#xe633;" d="M256 76.089c-81.351 0-147.911 66.56-147.911 147.911s66.56 147.911 147.911 147.911 147.911-66.56 147.911-147.911-66.56-147.911-147.911-147.911zM256 360.534c-75.094 0-136.534-61.44-136.534-136.534s61.44-136.534 136.534-136.534 136.534 61.44 136.534 136.534-61.44 136.534-136.534 136.534zM312.317 288.365l8.045-8.045-120.678-120.679-8.045 8.045 120.679 120.678zM199.684 288.365l120.679-120.678-8.045-8.045-120.678 120.678 8.045 8.045z" />
<glyph unicode="&#xe634;" d="M256 78.933c-80.214 0-145.066 64.853-145.066 145.067s64.853 145.067 145.066 145.067 145.067-64.854 145.067-145.067-64.853-145.067-145.067-145.067zM256 357.689c-73.956 0-133.689-59.733-133.689-133.689s59.733-133.689 133.689-133.689 133.689 59.733 133.689 133.689-59.733 133.689-133.689 133.689zM252.018 158.009l-57.458 50.631 42.666 72.818 44.942 39.254 5.12 32.426 11.378-2.276-6.258-35.84-46.080-40.391-36.978-63.715 44.942-40.391 38.115 14.791-5.689 40.391 53.476 13.084 22.187-22.186 30.72 12.516 4.551-10.24-37.546-15.929-23.325 23.325-37.546-9.671 5.689-39.254zM166.115 122.169l-10.809 1.707 5.689 42.098-18.204 18.204h-23.325v11.378h27.875l25.6-25.6zM123.449 260.978l-2.275 11.378 31.289 5.12 10.809 27.307 22.186 11.378 5.12 36.409 11.378-1.138-6.258-43.236-23.325-11.378-11.946-29.582z" />
<glyph unicode="&#xe635;" d="M352.142 175.644l-202.524 5.689-50.062 124.587 270.791 18.204-18.204-148.48zM157.582 192.711l184.32-5.689 15.36 124.587-241.209-15.929 41.529-102.969zM335.644 78.933c-15.929 0-28.445 12.515-28.445 28.445s12.515 28.445 28.445 28.445 28.445-12.515 28.445-28.445-12.515-28.445-28.445-28.445zM335.644 124.445c-9.671 0-17.067-7.396-17.067-17.067s7.396-17.067 17.067-17.067 17.067 7.396 17.067 17.067-7.396 17.067-17.067 17.067zM170.667 78.933c-15.929 0-28.445 12.515-28.445 28.445s12.516 28.445 28.445 28.445 28.445-12.515 28.445-28.445-12.516-28.445-28.445-28.445zM170.667 124.445c-9.671 0-17.066-7.396-17.066-17.067s7.395-17.067 17.066-17.067 17.066 7.396 17.066 17.067-7.395 17.067-17.066 17.067zM369.778 316.729l-11.378 2.275 6.258 37.547 37.546 11.946 3.413-10.24-30.72-10.809zM335.644 144.356l-5.12 10.809 7.964 20.48h13.654zM143.36 138.666l-2.275 11.378 23.893 5.689h170.666v-11.378h-170.098z" />
<glyph unicode="&#xe636;" d="M126.293 95.431l39.254 92.16 166.684 166.685 1.138 0.569c0.569 0 3.413 1.138 8.534 1.138 7.964 0 19.911-2.275 31.858-14.222 19.342-19.342 11.947-38.685 11.378-39.253l-0.569-1.138-0.569-0.569-165.547-166.115-92.16-39.254zM175.218 180.764l-27.306-63.716 64.284 27.307 162.702 162.702c0.569 2.845 2.844 13.654-9.102 25.6-9.102 9.102-17.635 10.809-23.894 10.809-1.707 0-2.844 0-3.982-0.569l-162.702-162.134zM130.845 104.534h153.6v-11.378h-153.6v11.378zM331.070 338.743l37.008-37.008-8.045-8.045-37.008 37.008 8.045 8.045zM314.003 321.676l37.008-37.008-8.045-8.045-37.008 37.008 8.045 8.045z" />
<glyph unicode="&#xe637;" d="M176.924 77.796h-42.098c-5.12 0-21.618 0-21.618 15.929l-5.689 125.724c0 16.498 16.498 16.498 21.618 16.498h36.409c3.982 0 15.36 0 19.911-7.964 20.48 17.636 38.115 74.524 38.115 89.315 0 2.844 0 5.689-0.569 9.102-0.569 13.654-1.707 29.013 6.827 37.546 3.982 3.982 8.534 5.689 14.791 5.689 23.894 0 38.115-23.894 40.391-47.787 2.276-25.031 1.707-43.804-0.569-55.751h88.747c17.635 0 31.858-14.222 31.858-31.858 0-10.809-5.689-20.48-14.791-26.169 2.276-4.551 3.982-10.24 3.982-15.36 0-13.084-7.964-23.894-18.774-27.875 2.844-5.12 4.551-10.809 4.551-15.929 0-11.378-6.258-21.618-15.36-26.738 0.569-2.276 0.569-4.551 0.569-6.827v-1.138c0-15.929-13.084-29.014-29.014-29.014h-125.725c-4.551 0-8.534 1.138-12.516 2.844-3.413-10.24-16.498-10.24-21.049-10.24zM129.138 224.569c-10.24 0-10.24-2.275-10.24-4.551l5.689-125.724c0-2.844 0-5.12 10.24-5.12h42.098c10.24 0 10.24 2.276 10.24 4.551v20.48l9.671-11.378c3.413-3.982 8.534-6.258 13.654-6.258h125.156c9.671 0 17.635 7.964 17.635 17.635v1.707c0 2.844-0.569 5.12-1.707 7.964l-2.276 5.689 5.689 1.707c7.396 2.276 12.515 9.102 12.515 17.067 0 6.258-2.276 11.947-6.827 15.929l-9.671 9.671 13.654 0.569c9.671 0 17.635 8.534 17.635 18.204 0 5.689-1.707 10.809-5.689 14.791l-5.689 6.827 8.534 2.276c7.964 2.276 13.084 9.102 13.084 17.636 0 11.946-9.102 21.049-20.48 21.049h-105.245l4.551 8.534c1.707 3.413 6.258 16.498 2.276 58.026-1.138 15.36-10.24 37.547-29.013 37.547-3.982 0-5.689-1.138-6.827-2.276-5.12-5.12-3.982-19.342-3.982-29.582 0-3.413 0.569-6.827 0.569-9.671 0-18.774-21.618-88.178-48.924-102.4l-1.138-0.569h-9.102v5.689c0 2.276 0 4.551-10.24 4.551h-35.84z" />
<glyph unicode="&#xe638;" d="M170.667 315.022h227.555v-17.066h-227.555v17.066zM170.667 229.689h227.555v-17.066h-227.555v17.066zM170.667 144.356h227.555v-17.067h-227.555v17.067zM113.778 315.022h17.067v-17.066h-17.067v17.066zM113.778 229.689h17.067v-17.066h-17.067v17.066zM113.778 144.356h17.067v-17.067h-17.067v17.067z" />
<glyph unicode="&#xe639;" d="M113.778 315.022h284.445v-17.066h-284.445v17.066zM113.778 229.689h284.445v-17.066h-284.445v17.066zM113.778 144.356h284.445v-17.067h-284.445v17.067z" />
<glyph unicode="&#xe63a;" d="M280.462 59.022h-37.547l-10.809 47.786c-10.809 2.844-21.618 7.964-33.565 15.929l-40.96-26.738-26.738 26.738 25.6 44.373c-5.12 9.102-8.534 18.204-11.378 27.306l-54.044 13.654v37.547l55.751 10.809c2.845 9.102 6.258 18.204 11.378 26.738l-27.306 46.080 26.738 26.738 43.804-29.013c8.534 5.12 18.774 9.102 29.013 11.946v0.569l11.946 50.062h37.546l11.947-49.493c9.102-2.275 18.204-5.689 26.169-10.24l45.511 26.738 26.169-26.738-28.445-42.098c5.689-9.102 9.671-19.342 13.084-31.858l45.511-10.24v-37.546l-43.236-12.515c-2.276-9.671-5.689-21.618-11.947-32.426l26.169-40.96-26.169-26.738-42.666 23.894c-10.24-6.258-20.48-10.24-30.151-13.084l-11.378-47.218zM252.018 70.4h19.342l10.24 46.080 3.413 0.569c10.809 2.276 21.618 6.827 32.995 14.222l2.844 1.707 40.96-23.325 13.654 14.222-25.6 39.253 1.707 2.844c5.689 9.102 9.671 19.911 13.084 35.271l0.569 3.413 42.666 11.947v19.342l-43.805 9.671-0.569 3.413c-3.413 13.654-7.964 25.6-14.791 34.702l-2.276 3.413 27.306 40.391-13.654 13.654-42.098-24.462-2.276-0.569-2.276 1.138c-8.534 5.12-18.204 8.534-27.875 11.378l-1.707 0.569-4.551 4.551-7.964 43.804h-19.342l-10.809-43.804-3.982-5.12-1.707-0.569c-11.947-2.844-22.186-7.396-31.289-13.084l-2.845-1.707-3.982 2.275-38.685 26.169-13.654-13.654 24.462-42.098 0.569-3.413-1.138-2.275c-5.689-9.102-9.671-18.774-12.516-29.582l-0.569-2.845-7.395-2.275-46.080-9.102v-19.342l47.787-11.947 5.12-2.276 0.569-2.844c2.275-9.671 6.258-19.342 11.947-29.582l1.138-1.707-0.569-5.12-22.756-39.253 13.654-13.654 39.254 25.6 2.845-2.276c13.084-9.102 25.031-14.222 36.409-17.067l3.413-0.569 10.809-46.080zM261.689 167.111c-31.289 0-56.889 25.6-56.889 56.889s25.6 56.889 56.889 56.889 56.889-25.6 56.889-56.889-25.6-56.889-56.889-56.889zM261.689 269.511c-25.031 0-45.511-20.48-45.511-45.511s20.48-45.511 45.511-45.511 45.511 20.48 45.511 45.511-20.48 45.511-45.511 45.511z" />
<glyph unicode="&#xe63b;" d="M256.569 83.485l-5.12 5.689c-3.982 5.12-97.849 122.311-97.849 180.906 0 55.751 39.254 90.454 102.4 90.454 65.422 0 101.831-31.858 102.4-89.885 0.569-36.409-30.72-95.005-92.729-174.080-2.276-3.413-3.982-5.12-4.551-6.258l-4.551-6.827zM256 349.155c-56.889 0-91.022-29.582-91.022-79.075 0-47.786 72.249-143.36 91.022-167.822 0 0 0.569 0.569 0.569 0.569 75.094 96.142 90.454 143.929 90.454 167.254-0.569 65.422-50.062 79.075-91.022 79.075zM256 224c-22.186 0-39.822 17.636-39.822 39.822s17.636 39.822 39.822 39.822 39.822-17.635 39.822-39.822-17.635-39.822-39.822-39.822zM256 292.267c-15.929 0-28.445-12.516-28.445-28.445s12.516-28.445 28.445-28.445 28.445 12.516 28.445 28.445-12.515 28.445-28.445 28.445z" />
<glyph unicode="&#xe63c;" d="M238.934 107.378c-72.249 0-130.845 58.596-130.845 130.845s58.596 130.845 130.845 130.845 130.845-58.596 130.845-130.845-58.596-130.845-130.845-130.845zM238.934 357.689c-65.991 0-119.466-53.475-119.466-119.466s53.475-119.467 119.466-119.467 119.466 53.476 119.466 119.466-53.476 119.466-119.466 119.466zM328.024 151.498l73.829-62.466-7.349-8.686-73.829 62.466 7.349 8.686z" />
<glyph unicode="&#xe63d;" d="M327.111 81.778c-26.738 0-48.356 21.618-48.356 48.356s21.618 48.356 48.356 48.356 48.356-21.618 48.356-48.356-21.618-48.356-48.356-48.356zM327.111 167.111c-20.48 0-36.978-16.498-36.978-36.978s16.498-36.978 36.978-36.978 36.978 16.498 36.978 36.978-16.498 36.978-36.978 36.978zM184.889 172.8c-26.738 0-48.356 21.618-48.356 48.356s21.618 48.356 48.356 48.356 48.356-21.618 48.356-48.356-21.618-48.356-48.356-48.356zM184.889 258.134c-20.48 0-36.978-16.498-36.978-36.978s16.498-36.978 36.978-36.978 36.978 16.498 36.978 36.978-16.498 36.978-36.978 36.978zM327.111 269.511c-26.738 0-48.356 21.618-48.356 48.356s21.618 48.356 48.356 48.356 48.356-21.618 48.356-48.356-21.618-48.356-48.356-48.356zM327.111 354.844c-20.48 0-36.978-16.498-36.978-36.978s16.498-36.978 36.978-36.978 36.978 16.498 36.978 36.978-16.498 36.978-36.978 36.978zM286.661 302.464l6.94-9.017-73.939-56.903-6.94 9.017 73.939 56.903zM225.517 205.62l62.526-51.151-7.204-8.806-62.525 51.151 7.204 8.806z" />
<glyph unicode="&#xe63e;" d="M256 93.724l-1.138 1.707c-2.275 0.569-3.982 2.276-4.551 3.413 0 0.569-0.569 1.138-0.569 1.707-12.516 10.24-70.542 44.942-106.951 65.991-35.271 20.48-54.614 59.733-49.493 100.125 5.689 43.805 40.391 79.075 84.195 85.902 24.462 3.413 51.2-6.258 78.506-30.151 27.307 23.324 54.044 33.564 78.507 30.151 43.805-6.827 78.507-42.098 84.195-85.902 5.12-40.391-14.222-80.214-49.493-100.125-35.84-21.049-93.867-55.751-106.951-65.991 0-0.569 0-1.138-0.569-1.707-0.569-1.707-2.276-2.844-4.551-3.413l-1.138-1.707zM256 110.791l0.569-0.569c21.049 15.929 97.28 60.302 106.951 65.991 31.289 18.204 48.925 52.906 43.805 89.315-5.12 38.685-35.84 69.974-74.524 75.662-22.187 3.413-46.649-6.827-72.818-30.72l-3.982-3.413-3.982 3.413c-26.169 23.325-50.631 33.565-72.818 30.72-38.685-5.689-69.404-36.978-74.525-75.662-4.551-35.84 12.516-71.111 43.805-89.315 9.671-5.689 85.333-50.062 106.951-65.991l0.569 0.569z" />
<glyph unicode="&#xe63f;" d="M392.534 138.666h-273.067c-3.413 0-5.689 2.276-5.689 5.689v159.289c0 2.275 1.138 3.982 3.413 5.12 1.707 1.138 4.551 0.569 6.258-0.569l128.569-101.262h7.396l129.138 101.262c1.707 1.138 3.982 1.707 6.258 0.569 1.707-1.138 3.413-2.845 3.413-5.12v-159.289c0-3.413-2.276-5.689-5.689-5.689zM125.156 150.045h261.689v141.654l-121.742-95.005c-1.138-0.569-2.276-1.138-3.413-1.138h-11.378c-1.138 0-2.275 0.569-3.413 1.138l-121.742 95.005v-141.654zM119.466 309.333h273.067v-11.378h-273.067v11.378zM197.181 237.526l4.167-3.873-79.784-85.842-4.167 3.873 79.784 85.843zM309.238 237.367l85.279-85.28-4.022-4.022-85.279 85.279 4.022 4.023z" />
<glyph unicode="&#xe640;" d="M346.454 41.955h-175.218c-13.084 0-23.325 10.24-23.325 23.325v317.44c0 13.084 10.24 23.325 23.325 23.325h175.218c13.084 0 23.325-10.24 23.325-23.325v-317.44c0-13.084-10.24-23.325-23.325-23.325zM171.236 394.666c-6.258 0-11.947-5.12-11.947-11.946v-317.44c0-6.827 5.12-11.947 11.947-11.947h175.218c6.258 0 11.947 5.12 11.947 11.947v317.44c0 6.827-5.12 11.947-11.947 11.947h-175.218zM221.867 371.911h68.266v-11.378h-68.267v11.378zM256 67.555c-10.809 0-19.911 9.102-19.911 19.911s9.102 19.911 19.911 19.911 19.911-9.102 19.911-19.911-9.102-19.911-19.911-19.911zM256 101.689c-7.964 0-14.222-6.258-14.222-14.222s6.258-14.222 14.222-14.222 14.222 6.258 14.222 14.222-6.258 14.222-14.222 14.222zM142.222 332.089h11.378v-22.756h-11.378v22.756zM142.222 303.644h11.378v-22.755h-11.378v22.755z" />
<glyph unicode="&#xe641;" d="M158.151 78.933l34.702 112.64-88.746 77.938h111.502l39.822 101.831 44.942-101.831h106.382l-83.058-78.507 35.84-111.502-103.538 68.267-97.849-68.835zM256 160.853l83.058-55.182-28.445 88.747 68.267 63.716h-85.334l-37.547 84.195-32.995-84.195h-89.316l72.249-63.716-27.306-88.178 77.369 54.613z" />
<glyph unicode="&#xe642;" d="M260.551 122.738c-8.534 0-38.685 11.378-38.685 23.894v1.707l27.875 10.809 11.947-4.551 10.24 4.551 24.462-9.671v-1.707c-0.569-13.654-27.307-25.031-35.84-25.031zM229.262 144.356c3.982-5.12 11.947-15.929 31.289-15.929s29.014 11.378 31.289 16.498l-18.774 7.964-11.378-4.551-11.378 4.551-21.049-8.534zM309.476 30.578h-97.849c-13.654 0-23.893 11.378-23.893 25.6v2.844h-15.929c-41.529 0-75.094 34.133-75.094 76.231v154.738c0 42.098 33.565 76.231 75.094 76.231h27.306v13.084c0 15.36 10.24 26.738 23.893 26.738h86.471c14.222 0 26.169-12.515 26.169-26.738v-13.084h19.911c42.098 0 76.8-34.134 76.8-76.231v-154.738c0-42.098-34.702-76.231-76.8-76.231h-19.911v-2.844c0-13.654-11.947-25.6-26.169-25.6zM171.804 354.844c-35.271 0-63.715-29.013-63.715-64.853v-154.738c0-35.84 28.445-64.853 63.715-64.853h27.306v-14.222c0-6.827 4.551-14.222 12.516-14.222h97.849c7.396 0 14.791 6.827 14.791 14.222v14.222h31.289c35.84 0 65.422 29.014 65.422 64.853v154.738c0 35.84-29.582 64.853-65.422 64.853h-31.289v24.462c0 8.534-6.827 15.36-14.791 15.36h-86.471c-7.395 0-12.516-6.827-12.516-15.36v-24.462h-38.684zM210.489 366.222h113.778v-11.378h-113.778v11.378zM187.733 70.4h142.222v-11.378h-142.222v11.378zM238.934 264.96c-1.707-1.138-7.395-7.965-7.395-7.965s-32.427 13.085-49.493 13.654c-17.066 0.569-34.133-9.671-34.133-9.671s27.875 23.324 57.458 17.066 34.702-11.947 33.565-13.084zM193.422 249.6c-11.378 1.138-18.204-3.413-23.893-3.982-6.258-1.138-14.791 4.551-14.791 4.551s7.395-26.169 21.618-30.72c14.222-4.551 47.786 2.276 47.786 2.276h5.12l2.275 3.982c-0.569 0-13.084 21.618-38.115 23.893zM196.835 220.587c-25.031-1.138-28.445 14.791-28.445 19.342 2.845 4.551 19.342 9.671 32.995 5.689s23.893-20.48 23.893-20.48-9.671-3.982-28.445-4.551zM195.129 247.893c-7.964 0-14.222-6.258-14.222-14.222s6.258-14.222 14.222-14.222c7.964 0 14.222 6.258 14.222 14.222s-6.258 14.222-14.222 14.222zM187.165 230.258c-2.275 0-4.551 1.707-4.551 4.551 0 2.275 1.707 4.551 4.551 4.551 2.275 0 4.551-1.707 4.551-4.551 0-2.275-1.707-4.551-4.551-4.551zM284.445 264.96c1.707-1.138 7.396-7.965 7.396-7.965s31.858 13.085 48.925 13.654c17.067 0.569 34.133-9.671 34.133-9.671s-27.875 23.324-57.458 17.066-34.134-11.947-32.995-13.084zM292.409 225.707l2.276-3.982h5.12c0 0 32.995-6.827 47.786-2.276 14.222 4.551 21.618 30.72 21.618 30.72s-9.102-5.689-14.791-4.551c-6.258 1.138-13.084 5.12-23.894 3.982-25.6-2.275-38.115-23.893-38.115-23.893zM297.529 225.707c0 0 10.24 16.498 23.894 20.48s30.151-1.707 32.995-5.689c0-4.551-3.413-20.48-28.445-19.342-18.204 0-28.445 4.551-28.445 4.551zM313.458 233.102c0-7.964 6.258-14.222 14.222-14.222s14.222 6.258 14.222 14.222-6.258 14.222-14.222 14.222c-7.396 0.569-14.222-6.258-14.222-14.222zM331.662 234.809c0 2.275 1.707 4.551 4.551 4.551 2.276 0 4.551-1.707 4.551-4.551 0-2.275-1.707-4.551-4.551-4.551s-4.551 2.275-4.551 4.551zM260.551 137.529c-18.204 0-31.289 3.982-31.858 4.551l1.707 5.689c-1.138-2.844 30.72-11.947 62.009-1.138l1.138-3.413c-11.947-4.551-23.325-5.689-32.995-5.689z" />
<glyph unicode="&#xe643;" d="M337.92 77.226l-176.356 146.774 176.356 146.774 6.827-9.102-164.978-137.671 164.978-137.671z" />
<glyph unicode="&#xe644;" d="M174.080 77.226l-6.827 9.102 164.978 137.671-164.978 137.671 6.827 9.102 176.356-146.774z" />
<glyph unicode="&#xe645;" d="M358.4 161.422h-73.956v11.378h72.249c0.569 0 1.138 0 1.138 0 37.546 2.844 67.129 34.133 67.129 71.111 0 39.253-31.858 71.111-70.542 71.111-9.102 0-17.635-1.707-26.738-5.12-2.276-1.138-5.689 0-6.827 2.276-17.067 26.738-45.511 42.666-76.8 42.666-39.822 0-75.662-26.738-87.040-64.853-0.569-2.845-3.413-4.551-6.258-3.982s-5.689 0.569-8.534 0.569c-31.858 0-58.026-26.169-58.026-56.889 0-27.875 21.049-52.338 47.786-56.32 0.569 0 1.138-0.569 1.707-0.569h93.867v-11.378h-96.711c-1.138 0-2.275 0.569-3.413 1.138-30.72 5.689-55.182 34.702-55.182 67.129 0 37.547 31.289 68.267 69.404 68.267 1.707 0 3.982 0 5.689 0 14.222 40.391 53.476 68.267 96.711 68.267 33.565 0 64.853-16.498 84.195-44.374 8.534 2.845 17.067 4.551 26.169 4.551 44.942 0 81.92-36.978 81.92-82.489 0-42.098-33.565-77.938-76.231-81.92 0-0.569-1.138-0.569-1.707-0.569zM250.311 258.134h11.378v-193.422h-11.378v193.422zM297.529 208.64l-41.529 46.649-41.529-46.649-7.964 7.964 49.493 55.751 49.493-55.751z" />
<glyph unicode="&#xe646;" d="M215.609 238.222c0-7.855-6.368-14.222-14.222-14.222s-14.222 6.368-14.222 14.222c0 7.855 6.368 14.222 14.222 14.222s14.222-6.368 14.222-14.222zM335.075 238.222c0-7.855-6.368-14.222-14.222-14.222s-14.222 6.368-14.222 14.222c0 7.855 6.368 14.222 14.222 14.222s14.222-6.368 14.222-14.222zM261.12 124.445c-25.031 0-62.578 2.844-62.578 25.6h11.378c0-11.378 31.858-14.222 51.2-14.222s51.2 2.844 51.2 14.222h11.378c0-22.755-38.115-25.6-62.578-25.6zM309.476 30.578h-97.849c-13.654 0-23.893 11.378-23.893 25.6v2.844h-15.929c-41.529 0-75.094 34.133-75.094 76.231v154.738c0 42.098 33.565 76.231 75.094 76.231h27.306v13.084c0 15.36 10.24 26.738 23.893 26.738h86.471c14.222 0 26.169-12.515 26.169-26.738v-13.084h19.911c42.098 0 76.8-34.134 76.8-76.231v-154.738c0-42.098-34.702-76.231-76.8-76.231h-19.911v-2.844c0-13.654-11.947-25.6-26.169-25.6zM171.804 354.844c-35.271 0-63.715-29.013-63.715-64.853v-154.738c0-35.84 28.445-64.853 63.715-64.853h27.306v-14.222c0-6.827 4.551-14.222 12.516-14.222h97.849c7.396 0 14.791 6.827 14.791 14.222v14.222h31.289c35.84 0 65.422 29.014 65.422 64.853v154.738c0 35.84-29.582 64.853-65.422 64.853h-31.289v24.462c0 8.534-6.827 15.36-14.791 15.36h-86.471c-7.395 0-12.516-6.827-12.516-15.36v-24.462h-38.684zM210.489 366.222h113.778v-11.378h-113.778v11.378zM187.733 70.4h142.222v-11.378h-142.222v11.378z" />
<glyph unicode="&#xe647;" d="M284.445 143.218c-12.515 0-26.169 1.707-40.96 5.689-42.098 10.809-98.987 42.666-134.258 133.689l-42.098 21.049 42.098 22.186c13.653 47.218 47.218 77.938 85.902 77.938 7.964 0 16.498-1.138 25.031-3.982 34.702-10.809 51.769-33.564 67.129-53.476 17.067-22.755 31.858-42.666 68.836-45.511l36.409 43.804-7.964-41.529c12.515 4.551 26.169 12.516 40.391 20.48l18.204 9.671-5.12-14.222c-10.809-29.582-22.187-47.218-34.702-63.715 8.534 1.707 18.204 3.413 23.894 2.276l7.964-2.276-5.12-6.827c-51.2-68.267-89.315-105.245-145.635-105.245zM92.16 303.644l26.169-13.084 0.569-2.276c18.204-48.355 55.182-110.364 126.862-128.569 14.222-3.413 26.738-5.12 38.115-5.12 49.493 0 84.195 31.858 129.138 91.022-3.982-0.569-7.964-1.707-11.947-2.275-5.12-1.138-9.671-2.275-13.084-2.275l-12.515-0.569 8.534 10.24c14.791 17.066 26.169 31.858 37.546 58.026-15.36-8.534-30.151-15.929-43.236-19.342l-9.102-2.845 2.844 16.498-11.947-14.222h-2.844c-44.373 2.844-62.578 27.306-79.644 50.631-14.791 19.342-29.582 39.822-60.871 49.493-7.395 2.275-14.791 3.413-21.618 3.413-34.133 0-63.715-28.445-75.662-71.68l-0.569-2.275-26.738-14.791zM181.476 273.494v0c-0.569 0-1.707 0-2.275 0-10.809 0.569-21.049 5.689-28.445 13.654-7.395 8.534-10.809 18.773-10.24 30.151 1.138 22.756 21.049 40.391 43.804 39.254s40.391-21.049 39.254-43.804c-1.707-21.618-19.911-39.254-42.098-39.254zM181.476 350.862c-18.774 0-34.702-14.791-35.84-33.564-0.569-9.671 2.845-18.774 9.102-26.169s15.36-11.378 24.462-11.947c19.911-1.138 36.978 14.222 38.115 33.565 1.138 19.911-14.222 36.978-33.565 38.115-1.138 0-1.707 0-2.275 0zM178.631 313.885c0-4.713-3.821-8.534-8.534-8.534s-8.534 3.821-8.534 8.534c0 4.713 3.821 8.534 8.534 8.534s8.534-3.821 8.534-8.534zM278.755 144.356l5.689-11.378v-28.445l11.378 28.445-5.689 11.378zM233.244 24.889c2.275 13.654 4.551 27.307 7.964 40.96v1.138l1.138 1.138c7.395 6.258 14.222 12.515 22.187 18.204 7.396 6.258 14.791 11.947 22.187 17.635l9.102 6.258v-11.378c0-5.689 0-11.378 0-17.067s0-11.378-0.569-17.067l-6.258 5.12c7.396 1.707 15.36 3.413 22.755 4.551l3.982 0.569 1.138-3.413c2.276-7.964 4.551-15.36 6.827-23.325s4.551-15.929 6.258-23.894c-3.982 7.396-7.396 14.791-10.809 21.618-3.413 7.396-6.827 14.791-10.24 22.187l5.12-2.844c-7.396-2.276-14.791-4.551-22.755-6.827l-6.258-1.707v6.827c0 5.689-0.569 11.378-0.569 17.067s0 11.378 0 17.067l9.102-4.551c-7.396-5.689-15.36-11.378-23.325-16.498-7.964-5.689-15.929-10.809-23.325-15.929l1.138 1.707c-4.551-11.947-9.102-25.031-14.791-37.546z" />
<glyph unicode="&#xe648;" d="M358.4 161.422h-73.956v11.378h72.249c0.569 0 1.138 0 1.138 0 37.546 2.844 67.129 34.133 67.129 71.111 0 39.253-31.858 71.111-70.542 71.111-9.102 0-17.635-1.707-26.738-5.12-2.276-1.138-5.689 0-6.827 2.276-17.067 26.738-45.511 42.666-76.8 42.666-39.822 0-75.662-26.738-87.040-64.853-0.569-2.845-3.413-4.551-6.258-3.982s-5.689 0.569-8.534 0.569c-31.858 0-58.026-26.169-58.026-56.889 0-27.875 21.049-52.338 47.786-56.32 0.569 0 1.138-0.569 1.707-0.569h93.867v-11.378h-96.711c-1.138 0-2.275 0.569-3.413 1.138-30.72 5.689-55.182 34.702-55.182 67.129 0 37.547 31.289 68.267 69.404 68.267 1.707 0 3.982 0 5.689 0 14.222 40.391 53.476 68.267 96.711 68.267 33.565 0 64.853-16.498 84.195-44.374 8.534 2.845 17.067 4.551 26.169 4.551 44.942 0 81.92-36.978 81.92-82.489 0-42.098-33.565-77.938-76.231-81.92 0-0.569-1.138-0.569-1.707-0.569zM250.311 275.2h11.378v-193.422h-11.378v193.422zM256 67.555l-49.493 55.751 7.964 7.964 41.529-46.649 41.529 46.649 7.964-7.964z" />
<glyph unicode="&#xe649;" d="M135.964 95.431l6.827 56.32c-19.911 21.618-30.72 48.356-30.72 75.662 0 67.129 64.285 121.742 143.929 121.742s143.929-54.613 143.929-121.742-64.284-122.311-143.929-122.311c-23.325 0-46.649 5.12-67.129 14.222l-52.906-23.894zM256 337.778c-73.387 0-132.551-49.494-132.551-110.365 0-25.031 10.809-50.062 29.582-69.404l1.707-1.707-5.12-41.529 36.978 16.498 2.275-4.551 2.845 4.551c19.342-9.671 41.529-14.791 64.284-14.791 73.387 0 132.551 49.493 132.551 110.365s-59.164 110.933-132.551 110.933z" />
</font>
</defs>
</svg>
